找回密碼
 注冊

QQ登錄

只需一步,快速開始

三星專用:4K家庭影院的震撼感受 大氣蓬勃(變形金剛4+3預告片)H265/1.3G/百度

56080
回復
2369502
查看
  [復制鏈接]
1#
來源:4K視頻下載 2014-5-30 00:38:54 回帖獎勵 |閱讀模式
三星專用:4K家庭影院的震撼感受 大氣蓬勃(變形金剛4+3預告片)H265/1.3G/百度
三星專用:4K家庭影院的震撼感受 大氣蓬勃(變形金剛4+3預告片)H265/1.3G/百度
三星專用:4K家庭影院的震撼感受 大氣蓬勃(變形金剛4+3預告片)H265/1.3G/百度
三星專用:4K家庭影院的震撼感受 大氣蓬勃(變形金剛4+3預告片)H265/1.3G/百度
三星專用:4K家庭影院的震撼感受 大氣蓬勃(變形金剛4+3預告片)H265/1.3G/百度
三星專用:4K家庭影院的震撼感受 大氣蓬勃(變形金剛4+3預告片)H265/1.3G/百度

[三星專用]大氣蓬勃 感受4K家庭影院的震撼(變形金剛4+3預告片)H265/1.3G/百度


General
ID                             : 0 (0x0)
Complete name                  : E:\4K中國\UHD_ENT_Transformer_Quad.ts
Format                         : MPEG-TS
File size                      : 1.38 GiB
Duration                       : 3mn 51s
Overall bit rate mode          : Constant
Overall bit rate               : 51.4 Mbps

Video
ID                             : 257 (0x101)
Menu ID                        : 1 (0x1)
Format                         : HEVC
Format/Info                    : High Efficiency Video Coding
Codec ID                       : 36
Duration                       : 3mn 50s
Bit rate                       : 48.7 Mbps
Stream size                    : 1.31 GiB (94%)

Audio
ID                             : 258 (0x102)
Menu ID                        : 1 (0x1)
Format                         : AAC
Format/Info                    : Advanced Audio Codec
Format version                 : Version 4
Format profile                 : LC
Muxing mode                    : ADTS
Codec ID                       : 15
Duration                       : 3mn 50s
Bit rate mode                  : Constant
Bit rate                       : 126 Kbps
Channel(s)                     : 2 channels
Channel positions              : Front: L R
Sampling rate                  : 48.0 KHz
Compression mode               : Lossy
Stream size                    : 3.45 MiB (0%)

這個應該是 變形金剛4+3+2+1混搭的4K演示片.

清晰度不錯,無論是細節還是整體畫面感,都很能代表4K電影的頂級水準。

游客,如果您要查看本帖隱藏內容請回復
分享到:  QQ好友和群QQ好友和群
2#
2014-5-30 00:41:46
沒想到我遇到個沙發了

點評

用愛奇藝萬能播放器,可以出圖像,  發表于 2015-12-17 09:18
需要安裝MilkPlayer播放器才能播放,必須CPU高的才可流暢,或者三星S6手機 安裝播放器也可以流暢  發表于 2015-6-23 17:54
多次下次測試,多臺酷睿I7電腦測試,多種播放器測試,結果只有聲音,沒有圖像,大家別下。  發表于 2015-6-23 17:45
TV應用下載
3#
2014-5-30 00:42:11
第一個 感謝分享  !4K電影的頂級水準
4#
2014-5-30 00:42:41
都很能代表4K電影的頂級水準!!看畫面的確給力
5#
2014-5-30 00:43:56
看看呢,是不是喲
6#
2014-5-30 00:54:42
謝謝分享,下來看看
7#
2014-5-30 01:07:36
非常感謝分享!!!!!
8#
2014-5-30 01:22:00
變形金剛
9#
2014-5-30 01:37:08
嘿嘿嘿嘿嘿嘿嘿嘿嘿嘿嘿
10#
2014-5-30 02:03:33
謝謝分享。

點評

只有聲音沒有圖像!  發表于 2014-7-6 23:19
您需要登錄后才可以回帖 登錄 | 注冊
當貝
江西时时被停